#TITLE:Earth Quake;
#SUBTITLE:;
#ARTIST:KAZE.o2SE;
#TITLETRANSLIT:;
#SUBTITLETRANSLIT:;
#ARTISTTRANSLIT:;
#CREDIT:;
#BANNER:Earth Quake.png;
#BACKGROUND:Earth Quake-bg.png;
#LYRICSPATH:;
#CDTITLE:NVLM-cdtitle.png;
#MUSIC:Earth Quake.mp3;
#OFFSET:-16.094;
#SAMPLESTART:28.791;
#SAMPLELENGTH:12.000;
#SELECTABLE:YES;
#DISPLAYBPM:75.000:150.000;
#BPMS:0.000=150.000,244.000=75.000,276.000=150.000;
#STOPS:240.000=0.420
,241.000=0.420
,242.000=0.200
,242.500=0.200
,243.000=0.200
,243.500=0.200
;
#BGCHANGES:;
// cache tags:
#FIRSTBEAT:0.000;
#LASTBEAT:396.000;
#SONGFILENAME:Songs/nhac/Earth Quake/Earth Quake.sm;
#HASMUSIC:1;
#HASBANNER:1;
#MUSICLENGTH:194.716;
// end cache tags

//---------------dance-single - ----------------
#NOTES:
     dance-single:
     :
     Hard:
     13:
     0.926,0.966,0.719,0.395,1.000,1036.000,140.000,77.000,0.000,15.000:
1001
0000
0001
0000
0010
0000
0100
0000
1000
0000
0010
0000
,
0110
0000
0001
0000
1000
0000
0100
0000
0010
0000
0001
0000
,
0101
0000
0100
0000
0010
0000
1000
0000
0100
0000
0010
0000
,
1001
0000
1000
0000
1000
0000
0010
0000
0100
0000
0001
0000
,
2002
0200
0300
0020
,
0030
0000
0200
0000
0300
3003
0010
1001
,
2002
0200
0300
0020
,
0030
0200
3303
0110
,
1000
0010
1000
0100
0010
0001
0010
0001
0100
0010
1000
0100
1000
0100
0010
0100
,
0010
0001
1000
0100
1000
0010
0100
0010
0110
0000
1001
0000
0101
0000
0110
0000
,
0010
1000
0100
1000
0100
0010
0001
1000
0001
0010
1000
0010
1000
0010
0001
0100
,
0010
0100
0010
1000
0100
0010
0001
0100
0110
0000
1010
0000
1100
0000
0101
0000
,
0001
1000
0001
1000
0100
0010
0100
1000
0010
1000
0010
0100
0001
0100
0001
0010
,
0001
0010
0100
1000
0010
0100
0001
1000
1100
0000
0110
0000
0011
0000
1001
0000
,
1000
0010
0100
0001
0100
0010
0100
1000
0100
0001
0010
0100
1000
0010
0100
0001
,
1000
0100
1000
0100
0010
0001
0010
0001
0101
0000
0110
0000
1010
0000
1100
0000
,
1002
0000
0000
0000
,
0100
0000
0000
0000
,
0010
0000
0000
0000
,
0100
0000
0000
0003
,
1001
0000
1000
0100
0000
1000
0010
0000
0100
0000
0001
1000
0000
0100
1000
0000
,
1010
0000
1000
0100
0000
0001
0100
0000
0010
0000
1000
0001
0000
0100
0001
0000
,
0011
0000
0100
1000
0000
0010
1000
0000
0001
0000
0100
0010
0000
0010
1000
0000
,
1100
0000
0001
0100
0000
0010
1000
0000
0100
0000
0010
0001
0000
0010
0100
0000
,
1000
0010
1000
0010
1000
0100
1000
0000
0001
0010
0001
0010
0100
1000
0010
0000
,
0100
0001
0100
0001
1000
0100
0010
0000
0001
1000
0001
1000
0010
0100
1000
0000
,
0100
0001
0100
0001
0010
0100
1000
0000
0010
0100
0010
0100
0001
1000
0100
0000
,
0010
0001
0010
0001
1000
0010
0100
0000
0001
1000
0001
1000
0100
0010
0001
0000
,
1001
0000
1000
0100
0010
0000
0001
0000
0100
0010
1000
0010
1000
0100
1000
0000
,
0001
0010
0100
1000
0010
0100
0001
1000
0001
1000
0100
0010
0001
1000
0100
0000
,
0010
0001
0010
0001
0100
0010
0100
0010
1000
1000
0001
0010
0100
1000
0010
0000
,
1000
0001
1000
0100
1000
0100
0010
0001
1000
0010
0100
0010
1000
0001
0010
0000
,
0100
1000
0100
1000
0010
0100
0010
0100
0001
1000
0100
1000
0100
0010
0001
0000
,
1000
0010
1000
0010
0100
0001
0010
0100
1000
0010
1000
0010
0100
0001
0010
0000
,
0100
1000
0100
1000
0010
0100
0001
0100
0001
1000
0100
1000
0100
0010
0001
0000
,
1000
0010
1000
0100
0010
0001
0010
0010
0100
1000
0001
1000
0001
0100
0010
0000
,
1001
0001
1000
0010
0100
1000
0100
0001
0010
0100
1000
0010
0100
0001
0100
0000
,
0010
1000
0001
0010
0001
0001
0100
0010
1000
0100
1000
0001
0100
0001
0010
0000
,
0100
1000
0100
1000
0010
0100
0001
1000
0001
1000
0100
0010
0001
0010
0001
0000
,
0100
0010
1000
0100
1000
0100
0010
0001
0010
0100
1000
0010
0100
0001
0010
0000
,
0001
1000
0001
0100
0010
1000
0100
0010
0001
1000
0010
1000
0100
0100
0010
0000
,
0001
0010
0100
1000
0010
0100
0001
1000
0100
0001
0100
1000
0010
0100
0001
0000
,
0100
0010
1000
0100
1000
0100
0010
0001
0010
0100
1000
0001
0100
0010
0100
0000
,
0010
1000
0010
1000
0100
0010
0001
0010
0001
0100
0010
1000
0010
1000
0100
0000
,
2220
0000
0000
0000
3330
0000
1001
0000
0101
0000
0000
0110
0000
0000
1010
0000
,
2202
0000
3303
0110
0022
0000
0033
0000
,
2220
0000
0000
0000
3330
0000
1001
0000
0101
0000
0000
0110
0000
0000
1010
0000
,
1100
0001
0110
1000
0011
0100
1001
0010
,
2220
0000
0000
0000
3330
0000
1001
0000
0011
0000
0000
0110
0000
0000
1100
0000
,
2202
0000
3303
0011
0220
0000
0330
0000
,
2022
0000
0000
0000
3033
0000
1100
0000
1010
0000
0000
0110
0000
0000
0101
0000
,
1001
0000
0000
2202
0000
0000
0000
0000
3303
0000
0000
0000
0110
0000
0000
0000
,
1000
0100
0010
0000
0001
1000
0010
0000
0100
1000
0100
0000
0001
0010
0100
0000
,
1000
0010
0001
0000
0001
0010
1000
0000
0100
0010
0001
0000
0100
1000
0010
0000
,
1000
0100
0100
0000
0010
0001
0001
0000
1000
0010
0010
0000
0100
0001
1000
0000
,
0010
0100
0001
0000
1000
0100
0010
0000
0001
0100
0100
0000
0010
1000
0100
0000
,
0010
0001
1000
0000
0001
0010
0100
0000
0010
0001
1000
0000
0100
1000
0010
0000
,
1000
0001
0100
0000
1000
0100
0001
0000
0010
0100
1000
0000
0001
0100
0010
0000
,
1000
0100
0010
0000
0001
0010
0001
0000
0100
0010
1000
0000
0010
0100
0001
0000
,
1000
0100
0010
0000
0001
0010
0100
0000
1000
0001
0010
0000
0100
1000
0001
0000
,
1110
0000
0000
0000
0111
0000
0000
0000
1001
1000
1100
0001
0101
0010
1010
0000
,
1001
0100
0010
0001
0202
0000
0303
0000
0110
1000
0001
0010
2200
0000
3300
0000
,
1010
0001
0100
0010
2002
0000
3003
0000
0011
0100
1000
0010
2002
0000
3003
0000
,
0110
1000
0001
0010
0202
0000
0303
0000
1100
0010
0001
1000
0220
0000
0330
0000
,
1001
0100
0010
1000
0220
0000
0330
0000
1001
0100
0010
1000
0022
0000
0033
0000
,
1000
0100
1001
0100
2002
0000
3003
0000
0010
0100
0011
0100
0022
0000
0033
0000
,
1000
0001
1010
0001
2020
0000
3030
0000
0100
0010
1001
0010
2200
0000
3300
0000
,
0001
0010
0101
1000
2200
0000
3300
0000
0010
0001
0110
1000
2002
0000
3003
0000
,
0010
0100
0011
1000
0220
0000
0330
0000
1000
0100
1010
0001
0220
0000
0330
0000
,
1010
0000
1000
0000
1000
0000
0101
0000
0001
0000
0001
0000
,
0110
0000
0000
0000
0010
0000
0000
0000
0010
0000
0000
0000
1001
0000
0000
0000
1000
0000
0000
0000
0010
0100
0000
0000
,
0110
0000
0100
0000
0100
0000
1001
0000
0001
0000
0001
0000
,
0110
0000
0000
0000
0010
0000
0000
0000
0010
0000
0000
0000
1000
0000
0000
0100
0000
0000
1001
0000
0000
0000
0000
0000
,
0220
0000
0000
0000
0000
0000
0330
0000
1001
0010
0100
0001
0010
0100
1000
0001
,
0100
0010
1000
0100
0001
0100
1000
0010
0100
0001
0010
0100
1000
0001
0010
0100
,
1000
0010
0100
0001
1000
0100
0010
0001
0100
1000
0100
0010
1000
0001
0010
0100
,
0010
0001
1000
0100
0010
0001
1000
0100
2002
0000
0000
0000
0000
3003
0000
0000
,
0110
0100
0001
0010
0100
1000
0010
0001
0100
1000
0010
0100
0001
1000
0100
0010
,
0001
0001
0010
0100
1000
0010
0100
0001
0022
0000
0000
0000
0000
0033
0000
0000
,
1100
0001
0100
0010
0001
0100
1000
0100
0010
1000
0001
0010
0100
1000
0010
0100
,
0102
0100
0010
0010
1000
1000
1003
0000
,
0100
0010
0100
0010
1000
0100
0010
0001
0010
0001
1000
0010
1000
0100
1000
0000
,
0001
0010
0001
0010
0100
1000
0100
1000
0010
0100
0010
0100
0001
1000
0001
0000
,
0100
0010
0100
0100
0010
1000
0001
0010
0100
1000
0100
1000
0010
0100
0001
0000
,
0100
0010
0100
0010
1000
0100
0010
0001
0100
1000
0100
0010
1000
0001
0010
0000
,
0100
1000
1000
0010
0100
0001
0010
0001
1000
0010
1000
0010
0100
0010
0100
0000
,
0001
1000
0001
0010
0100
1000
0100
1000
0010
0100
0001
0010
0100
1000
0010
0000
,
0110
0000
0000
0101
0000
0000
1001
0000
1010
0000
0000
1100
0000
0000
0101
0000
,
0000
0000
1000
0001
1001
0000
1100
0000
0110
0000
0000
0011
0000
0000
1001
0000
,
1000
0010
0100
0010
0100
0001
0010
0100
1000
1000
0100
0010
0001
1000
0010
0000
,
0100
1000
0100
0001
0010
0100
1000
0010
0100
0001
0100
0001
1000
0100
0010
0000
,
0001
0100
1000
0100
0010
1000
0001
0010
0100
1000
0010
0001
0010
1000
0100
0000
,
1000
0001
1000
0100
0010
1000
0010
0001
0100
1000
0100
0001
0010
0100
1000
0000
,
0010
0100
0001
1000
0100
0001
0001
0100
1000
0010
0100
0001
0010
0100
0001
0000
,
0100
0010
0001
1000
0010
0100
1000
0100
0001
0010
0100
1000
0010
0100
0001
0000
,
1001
0000
0000
1100
0000
0000
0110
0000
0011
0000
0000
1001
0000
0000
1010
0000
,
0000
0000
0001
0100
0101
0000
0110
0000
1010
0000
0000
1100
0000
0000
0101
0000
,
2002
0000
0000
0000
,
0000
0000
0000
0000
,
3003
0000
0000
0000
;

//---------------dance-single - ----------------
#NOTES:
     dance-single:
     :
     Challenge:
     21:
     1.000,1.000,1.000,1.000,1.000,1844.000,812.000,234.000,0.000,343.000:
2211
0000
3002
0000
0023
0000
2030
0000
3002
0000
2003
0000
,
3322
0000
2003
0000
3200
0000
0302
0000
2003
0000
3002
0000
,
2233
0000
0320
0000
0032
0000
0023
0000
0230
0000
0320
0000
,
3232
0000
2300
0000
3020
0000
0230
0000
2300
0000
3020
0000
,
1133
1010
0222
0000
1333
0000
0101
0110
2022
0000
3033
0000
1100
1010
0222
0000
,
0333
0000
0101
0011
2220
0000
3330
0000
1100
1010
0110
0101
1001
1100
0110
0011
,
1001
1010
0222
0000
1333
0000
1001
0011
2220
0000
3330
0000
1100
1010
0222
0000
,
0333
0000
0101
0011
2220
0000
3330
0000
1100
1010
0110
0101
0011
0110
1100
0110
,
1111
0000
0000
0000
1010
0000
0000
0000
1100
0000
0000
0000
0001
0010
0000
1000
0100
0000
0000
0000
0010
0000
0000
0000
1001
0000
0000
0000
0100
0000
0000
0000
2010
0000
0000
0000
0100
0000
0000
0000
3001
0000
0000
0000
0010
0000
0000
0000
1100
0000
0000
0000
0001
0000
0000
0000
2200
0000
0000
0000
0010
0000
0000
0000
,
3311
0000
0000
0000
0000
0000
0000
0000
0000
0000
0000
0000
0001
0000
0000
0000
0000
0000
0000
0000
0000
0000
0000
0000
1010
0000
0000
0000
0000
0000
0000
0000
0000
0000
0000
0000
0100
0000
0000
0000
0000
0000
0000
0000
0000
0000
0000
0000
2001
0000
0000
0000
0000
0000
0000
0000
0000
0010
0000
0000
0100
0000
0000
0000
0000
0000
0000
0000
0000
0000
0000
0000
3100
0000
0000
0000
0000
0000
0000
0000
0000
0000
0000
0000
0010
0000
0000
0000
0000
0000
0000
0000
0000
0000
0000
0000
1001
0000
0000
0000
0000
0000
0000
0000
0000
0000
0000
0000
0100
0000
0000
0000
0000
0000
0000
0000
0000
0000
0000
0000
1010
0000
0000
0000
0000
0000
0000
0000
0000
0000
0000
0000
0100
0000
0000
0000
0000
0000
0000
0000
0000
0000
0000
0000
1001
0000
0000
0000
0000
0000
0000
0000
0000
0000
0000
0000
0010
0000
0000
0000
0001
0000
0000
0000
0000
0000
0000
0000
2100
0000
0000
0000
0000
0000
0000
0000
0000
0000
0000
0000
0100
0000
0000
0000
0000
0000
0000
0000
0000
0000
0000
0000
,
3011
0000
0000
0000
0000
0000
0000
0000
0000
0000
0000
0000
1001
0000
0000
0000
0000
0000
0000
0000
0000
0000
0000
0000
0012
0000
0000
0000
0000
0000
0000
0000
0000
0000
0000
0000
0100
0000
0000
0000
0000
0000
0000
0000
0000
0000
0000
0000
1003
0000
0000
0000
0000
0000
0000
0000
0000
0100
0000
0000
0010
0000
0000
0000
0000
0000
0000
0000
0000
0000
0000
0000
0011
0000
0000
0000
0000
0000
0000
0000
0000
0000
0000
0000
0100
0000
0000
0000
0000
0000
0000
0000
0000
0000
0000
0000
1002
0000
0000
0000
0000
0000
0000
0000
0000
0000
0000
0000
0010
0000
0000
0000
0000
0000
0000
0000
0000
0000
0000
0000
0103
0000
0000
0000
0000
0000
0000
0000
0000
0000
0000
0000
0010
0000
0000
0000
0000
0000
0000
0000
0000
0000
0000
0000
1001
0000
0000
0000
0000
0000
0000
0000
0000
0000
0000
0000
0100
0000
0000
0000
1000
0000
0000
0000
0000
0000
0000
0000
0012
0000
0000
0000
0000
0000
0000
0000
0000
0000
0000
0000
0010
0000
0000
0000
0000
0000
0000
0000
0000
0000
0000
0000
,
1103
0000
0000
0000
0000
0000
0000
0000
0000
0000
0000
0000
0100
0000
0000
0000
0000
0000
0000
0000
0000
0000
0000
0000
0011
0000
0000
0000
0000
0000
0000
0000
0000
0000
0000
0000
1000
0000
0000
0100
0000
0000
0000
0000
0000
0000
0000
0000
1002
0000
0000
0000
0000
0000
0000
0000
0000
0000
0000
0000
0010
0000
0000
0000
0000
0000
0000
0000
0000
0000
0000
0000
0103
0000
0000
0000
0000
0000
0000
0000
0000
0000
0000
0000
1000
0000
0000
0000
0000
0000
0000
0000
0000
0000
0000
0000
0011
0000
0000
0000
0000
0000
0000
0000
0000
0000
0000
0000
0100
0000
0000
0000
1000
0000
0000
0000
0000
0000
0000
0000
0011
0000
0000
0000
0000
0000
0000
0000
0000
0000
0000
0000
1000
0000
0000
0000
0000
0000
0000
0000
0000
0000
0000
0000
0101
0000
0000
0000
0000
0000
0000
0000
0000
0000
0000
0000
0010
0000
0000
0000
0000
0000
0000
0000
0000
1000
0000
0000
0101
0000
0000
0000
0000
0000
0000
0000
0000
0000
0000
0000
0100
0000
0000
0000
0000
0000
0000
0000
0000
0000
0000
0000
,
0012
0000
0000
0000
0110
0000
0000
0000
1023
0000
0000
0000
1000
0000
0000
0000
0031
0000
0000
0000
0100
0000
0000
0000
0011
0000
0000
0000
1000
0000
0000
0000
0120
0000
0000
0000
0001
0000
0000
0000
1030
0000
0000
0000
0100
0000
0000
0000
0011
1000
0000
0000
0001
0000
0000
0000
0120
0000
0000
0000
1000
0000
0000
0000
,
0031
0000
0000
0000
0000
0000
0000
0000
0000
0000
0000
0000
0100
0000
0000
0000
0000
0000
0000
0000
0000
0000
0000
0000
0011
0000
0000
0000
0000
0000
0000
0000
0000
0000
0000
0000
1000
0000
0000
0000
0000
0000
0000
0000
0000
0000
0000
0000
0120
0000
0000
0000
0000
0000
0000
0000
0000
0000
0000
0000
0001
0000
0000
0000
0000
0000
0000
0000
0000
0000
0000
0000
1030
0000
0000
0000
0000
0000
0000
0000
0000
0000
0000
0000
0100
0000
0000
0000
0000
0000
0000
0000
0000
0000
0000
0000
0011
0000
0000
1000
0000
0000
0000
0000
0000
0000
0000
0000
0001
0000
0000
0000
0000
0000
0000
0000
0000
0000
0000
0000
0110
0000
0000
0000
0000
0000
0000
0000
0000
0000
0000
0000
1000
0000
0000
0000
0000
0000
0000
0000
0000
0000
0000
0000
0011
0000
0000
0000
0000
0000
0000
0000
0000
0000
0000
0000
0100
0000
0000
0000
1000
0000
0000
0000
0000
0000
0000
0000
0011
0000
0000
0000
0000
0000
0000
0000
0000
0000
0000
0000
1000
0000
0000
0000
0000
0000
0000
0000
0000
0000
0000
0000
,
0110
0000
0000
0000
0000
0000
0000
0000
0000
0000
0000
0000
1100
0000
0000
0000
0000
0000
0000
0000
0000
0000
0000
0000
0201
0000
0000
0000
0000
0000
0000
0000
0000
0000
0000
0000
0010
0000
0000
0000
0000
0000
0000
0000
0000
0000
0000
0000
1300
0000
0000
0000
0000
0000
0000
0000
0000
0000
0000
0000
0001
0000
0000
0000
0000
0000
0000
0000
0000
0000
0000
0000
0110
0000
0000
0000
0000
0000
0000
0000
0000
1000
0000
0000
0001
0000
0000
0000
0000
0000
0000
0000
0000
0000
0000
0000
0210
0000
0000
0000
0000
0000
0000
0000
0000
0000
0000
0000
0001
0000
0000
0000
0000
0000
0000
0000
0000
0000
0000
0000
1300
0000
0000
0000
0000
0000
0000
0000
0000
0000
0000
0000
0010
0000
0000
0000
0000
0000
0000
0000
0000
0000
0000
0000
1100
0000
0000
0000
0000
0000
0000
0000
0000
0000
0000
0000
0001
0000
0000
0000
0000
0000
0000
0000
0000
0000
0000
0000
0210
0000
0000
0000
0000
0000
0000
0000
0001
0000
0000
0000
1000
0000
0000
0000
0000
0000
0000
0000
0000
0000
0000
0000
,
0310
0000
0000
0000
0000
0000
0000
0000
0000
0000
0000
0000
0001
0000
0000
0000
0000
0000
0000
0000
0000
0000
0000
0000
1100
0000
0000
0000
0000
0000
0000
0000
0000
0000
0000
0000
0010
0000
0000
0000
0000
0000
0000
0000
0000
0000
0000
0000
0201
0000
0000
0000
0000
0000
0000
0000
0000
1000
0000
0000
0001
0000
0000
0000
0000
0000
0000
0000
0000
0000
0000
0000
0310
0000
0000
0000
0000
0000
0000
0000
0000
0000
0000
0000
1000
0000
0000
0000
0000
0000
0000
0000
0000
0000
0000
0000
0101
0000
0000
0000
0000
0000
0000
0000
0000
0000
0000
0000
0001
0000
0000
0000
1000
0000
0000
0000
0000
0000
0000
0000
0110
0000
0000
0000
0000
0000
0000
0000
0000
0000
0000
0000
1000
0000
0000
0000
0000
0000
0000
0000
0000
0000
0000
0000
0101
0000
0000
0010
0000
0000
0000
0000
0000
0000
0000
0000
1000
0000
0000
0000
0000
0000
0000
0000
0000
0000
0000
0000
1100
0000
0000
0000
0000
0000
0000
0000
0000
0000
0000
0000
0010
0000
0000
0000
0000
0000
0000
0000
0000
0000
0000
0000
,
2001
3010
2100
3001
1010
1100
2001
3010
2100
3001
2010
3100
1001
1010
2100
3011
,
1002
0103
0012
1003
0101
0011
1002
0103
0012
1003
0102
0013
1001
0101
0012
1103
,
0201
0310
1200
0301
0110
1100
0201
0310
1200
0301
0210
1300
0101
0110
1200
0311
,
1020
0130
0021
1030
0110
0011
1020
0130
0021
1030
0120
0031
1010
0110
0021
1130
,
1101
0110
0011
1001
1011
0110
1100
1001
0011
0110
0101
1010
1101
0101
0011
0110
,
1100
1001
0110
0011
1101
0110
1100
1001
0110
1100
1010
0110
1101
1001
1100
0110
,
0011
0101
0110
1010
1101
0101
1010
1100
0101
0011
0110
1100
1011
0110
1100
1001
,
0101
0110
1010
1100
1101
0011
0110
1100
1001
1010
0011
0110
1101
1010
0110
0101
,
1111
0011
0110
1100
1011
0110
1100
0011
1001
0110
1001
1100
1110
0011
1111
1100
,
1211
0011
1001
1002
1310
2010
0110
3123
1100
1200
1031
2001
0311
0012
3110
0110
,
1100
1100
1013
2010
0110
0120
3101
0101
1001
1002
1130
2100
0113
0110
0011
0011
,
0101
0102
3110
0110
1010
1020
1103
1100
0101
0101
1001
1002
1130
1100
0113
0110
,
2111
0100
0001
0000
3010
1000
0010
0000
1100
0001
0100
0000
1000
0100
1000
0000
0010
0001
0010
0000
0100
1000
0100
0000
0011
0100
0001
0000
1000
0010
1000
0000
,
0110
0001
0100
0000
0010
1000
0010
0000
0101
1000
0001
0000
0100
0001
0100
0000
0010
1000
0010
0000
0001
0010
0001
0000
1100
0001
0100
0000
1000
0010
1000
0000
,
0110
0001
0010
0000
0100
1000
0100
0000
1001
0010
0001
0000
1000
0010
1000
0000
0100
0001
0100
0000
0001
1000
0001
0000
0110
0001
0010
0000
0100
0010
0100
0000
,
1010
0001
1000
0000
0010
0100
0010
0000
1001
0010
0001
0000
0100
1000
0100
0000
0010
0001
0010
0000
1000
0100
1000
0000
0101
1000
0001
0000
0010
0001
0010
0000
,
1100
0001
0100
0000
1000
0100
1000
0000
0011
1000
0010
0000
0100
0001
0100
0000
1001
0010
0001
0000
1000
0001
1000
0000
0100
0010
0100
0000
0010
1000
0010
0000
,
0101
1000
0001
0000
0100
0001
0100
0000
0011
0100
0010
0000
1000
0010
1000
0000
0101
1000
0001
0000
0010
0001
0010
0000
1100
0001
0100
0000
1000
0010
1000
0010
,
1111
1111
0000
1111
1111
0000
1111
0000
1111
1111
0000
1111
1111
0000
2222
0000
,
3333
0000
1111
1111
2222
3333
1111
0000
1111
1111
0000
1111
1111
0000
2222
3333
,
1001
0100
0010
1000
0001
0010
0100
0000
1001
0010
0001
0000
0100
1000
0010
0000
0100
0001
0010
0000
0100
1000
0001
0000
1100
0010
1000
0000
0001
0010
0100
0000
,
0011
1000
0100
0000
0010
0001
1000
0000
0101
1000
0010
0000
0100
0001
0010
0000
1000
0010
0001
0000
0100
1000
0010
0000
1001
0010
0100
0000
1000
0001
0010
0000
,
0110
1000
0001
0000
0100
0010
0001
0000
1010
0100
0001
0000
0010
0100
1000
0000
0001
0010
0100
0000
0001
1000
0100
0000
1010
0001
0100
0000
1000
0010
0100
0000
,
1001
0010
1000
0000
0100
0010
0001
0000
1100
1000
0010
0000
0001
0010
0100
0000
1000
0010
0001
0000
0100
1000
0010
0000
1100
0001
0010
0000
0001
1000
0100
0000
,
0110
0001
1000
0000
0010
0100
1000
0000
1001
0100
0010
0000
0001
0010
1000
0000
0100
0001
0010
0000
1000
0100
0001
0000
0011
0100
1000
0000
0100
0010
0001
0000
,
1010
0100
0001
0000
0001
0010
1000
0000
0110
1000
0010
0000
0001
0100
1000
0000
0100
0010
0001
0000
1000
0010
0100
0000
1001
0010
0100
0000
1000
0100
0001
1000
,
1111
1111
0000
1111
1111
0000
1111
0000
1111
1111
0000
1111
1111
0000
2222
0000
,
3333
0000
1111
1111
1111
0000
1111
0000
1111
1111
0000
1111
1111
0000
2222
3333
,
1111
0110
1001
0110
1100
0011
1100
0011
0101
1010
0101
1010
0110
1001
0120
1002
,
1100
1100
1133
2200
0011
0011
0011
3321
1001
1001
1001
2032
0110
0110
0110
3113
,
1001
0110
1001
0110
1100
0011
1100
0011
0011
0110
1100
0011
0110
1100
0011
1100
,
1010
0011
0110
1100
1001
0110
0011
1001
1100
0110
1010
1100
0101
0011
0110
1100
,
1001
0110
0011
1100
1010
0101
1001
1100
0110
1010
1100
0011
0110
1100
1001
0110
,
1100
1010
0110
0101
1001
1100
0110
1001
0110
1001
1100
0110
1100
0011
0110
1100
,
0011
1100
1010
0101
1010
1100
0011
0110
0101
1001
1100
0110
0110
0011
1001
0110
,
1100
0001
1100
0000
0011
1000
0011
0000
0110
1000
0110
0000
1100
0001
1100
0000
1001
0010
1001
0000
1010
0100
1010
0000
0101
1000
0101
0000
1001
0010
1001
0000
,
1111
0000
0000
0010
0000
0000
0001
0000
0000
1100
0010
0000
0101
0000
0000
0001
0000
0000
1010
0000
0000
0100
0000
0000
1001
0000
0010
0100
0000
0000
0010
0000
0000
1001
0000
0000
0101
0000
0000
0010
0000
0000
1100
0000
0000
0010
0000
0000
,
1001
0000
0000
0100
0000
0000
0010
0000
0000
0101
0000
0000
1100
0000
0000
0010
0000
0000
0101
0000
1000
0010
0000
0000
0011
0000
0000
1000
0000
0000
0100
0000
0000
0011
0000
0000
1100
0000
0000
1000
0000
0000
0011
0000
0000
0100
0000
0000
,
1010
0000
0000
0001
0100
0000
1000
0000
0000
0011
0000
0000
0101
0000
0000
1000
0000
0000
0011
0000
0000
0100
0000
0000
1010
0000
0000
0001
0000
0000
0100
0000
0000
0011
0000
0000
1001
0000
0000
0100
0000
0000
0011
0000
1000
0001
0000
0000
,
0110
0000
0000
1000
0000
0000
0001
0000
0000
0110
0000
0000
1010
0000
0000
0001
0000
0000
0101
0000
1000
0010
0000
0000
0101
0000
0000
1000
0000
0000
0010
0000
0000
0101
0000
0000
1001
0000
0000
0010
0000
0000
1100
0000
0000
0001
0000
0000
,
1010
0000
0000
0100
0010
0000
0001
0000
0000
1100
0000
0000
0110
0000
0000
0001
0010
0000
1001
0000
0000
0100
0000
0000
1010
0000
0001
0100
0010
0000
0001
0000
0000
1001
0000
0000
0110
0000
0000
0100
0010
0000
1001
0000
0000
0100
0000
0000
,
0110
0000
1000
0001
0000
0000
1000
0000
0000
0110
0000
0000
1001
0000
0000
1000
0000
0000
0110
0000
0000
0001
1000
0000
0011
0000
0000
0100
0000
0000
1000
0000
0000
0011
0000
0000
1100
0000
0000
0001
0100
0000
0011
0000
0000
1000
0000
0000
,
1111
1111
0000
1111
1111
0000
1111
0000
1111
1111
0000
1111
1111
0000
2222
0000
,
3333
0000
1111
1111
1111
0000
1111
0000
1111
1111
0000
1111
1111
0000
1111
1111
,
2222
0000
3333
0000
2222
0000
3333
0000
2222
3333
2222
3333
2222
3333
2222
3333
,
1112
0100
0010
1000
0100
0010
1000
0010
1100
1000
0010
0100
1003
0010
1000
0100
1211
0010
1000
0001
0010
1000
0001
0010
1001
0001
0010
0001
1300
0010
0001
0100
,
1121
1000
0001
0100
1000
0001
0001
0100
1001
1000
0100
0001
1030
0100
0010
1000
1112
0010
0100
1000
1000
0010
0100
1000
1010
0010
0100
0010
1003
0100
0010
0001
,
1211
1000
0010
0001
0001
0010
1000
0001
1010
1000
0001
0010
0301
1000
0100
0001
1121
1000
0001
0001
0100
0001
1000
0100
1001
0100
1000
0001
0130
0010
0001
0100
,
2111
0001
0010
0100
0001
0001
0100
0010
0101
0010
0100
0001
3001
0100
0010
0001
1112
0100
0010
1000
1000
0010
0100
1000
1010
0010
0100
1000
0013
0100
0001
1000
,
1121
0001
0001
0100
1000
0001
0100
1000
1001
0001
0100
0001
1030
0100
0010
0001
1211
1000
0001
0010
0010
0001
1000
0010
1001
0010
1000
0001
0310
0100
0001
0010
,
2111
0001
0100
0010
0001
0100
0010
0100
0101
0010
0100
0001
3100
0010
1000
1000
1121
0001
1000
0001
0001
0100
1000
0001
1100
0100
0001
1000
0130
1000
0001
0010
,
1211
0001
0001
0010
0001
1000
0010
0001
1001
0010
0001
0010
1300
0010
0100
1000
1112
0100
0100
0010
1000
0100
0010
1000
1100
0010
1000
1000
0103
0010
1000
0100
,
1121
1000
0001
0100
1000
0001
0001
1000
1100
0001
0001
0100
1030
0001
0001
0010
1211
0001
0001
0010
1000
0001
0010
1000
0011
0001
1000
0010
0301
1000
0010
0100
,
2111
0111
0222
0000
0333
0000
0111
0111
0222
0000
0333
0000
0111
0111
0222
0000
,
0333
0000
0111
0111
0222
0000
0333
0000
0111
0111
0111
0111
0111
0111
3111
1111
,
1112
1110
2220
0000
3330
0000
1110
1110
2220
0000
3330
0000
1110
1110
2220
0000
,
3330
0000
1110
1110
2220
0000
3330
0000
1110
1110
1110
1110
1110
1110
1113
1111
,
1002
0000
0000
0000
0000
0000
0000
0000
0000
0000
0000
0000
0100
0000
0000
0000
0000
0000
0000
0000
0000
0000
0000
0000
0010
0000
0000
0000
1000
0000
0000
0000
0000
0000
0000
0000
0010
0000
0000
0000
0000
0000
0000
0000
0000
0000
0000
0000
0200
0000
0000
0000
0000
0000
0000
0000
0000
0000
0000
0000
1000
0000
0000
0000
0000
0000
0000
0000
0000
0000
0000
0000
0313
0000
0000
0000
0000
0000
0000
0000
0000
0000
0000
0000
1000
0000
0000
0000
0000
0000
0000
0000
0000
0000
0000
0000
0110
0000
0000
0000
0000
0000
0001
0000
0000
0000
0000
0000
0100
0000
0000
0000
0000
0000
1000
0000
0000
0000
0000
0000
0010
0000
0000
0000
0000
0000
0001
0000
0000
0000
0000
0000
0100
0000
0000
0000
0000
0000
1000
0000
0000
0000
0000
0000
0110
0000
0000
0000
0000
0000
0001
0000
0000
0000
0000
0000
0100
0000
0000
0000
0000
0000
1000
0000
0000
0000
0000
0000
0010
0000
0000
0000
0000
0000
0001
0000
0000
0000
0000
0000
0100
0000
0000
0000
0000
0000
1000
0000
0000
0000
0000
0000
,
1022
0000
0000
0000
0000
0000
0000
0000
0000
0000
0000
0000
0100
0000
0000
0000
0000
0000
0000
0000
0000
0000
0000
0000
1130
0000
0000
0000
0000
0000
0000
0000
0000
0000
0000
0000
0000
0000
0000
0000
0000
0000
0000
0000
0000
0000
0000
0000
1013
0000
0000
0000
0000
0000
0100
0000
0000
0000
0000
0000
0001
0000
0000
0000
0000
0000
1000
0000
0000
0000
0000
0000
0011
0000
0000
0000
0000
0000
0100
0000
0000
0000
0000
0000
0001
0000
0000
0000
0000
0000
1000
0000
0000
0000
0000
0000
0120
0000
0000
0000
0000
0000
0000
0000
0000
0000
0000
0000
0001
0000
0000
0000
0000
0000
0000
0000
0000
0000
0000
0000
1000
0000
0000
0000
0000
0000
0000
0000
0000
0000
0000
0000
0100
0000
0000
0000
0000
0000
0000
0000
0000
0000
0000
0000
0001
0000
0000
0000
1000
0000
0000
0000
0000
0000
0000
0000
0100
0000
0000
0000
0000
0000
0000
0000
0000
0000
0000
0000
1031
0000
0000
0000
0000
0000
0000
0000
0100
0000
0000
0000
0001
0000
0000
0000
0000
0000
0000
0000
0000
0000
0000
0000
,
1111
0001
1010
0000
2101
0010
0001
0000
3110
0001
0110
0000
1201
0010
0001
0000
1310
0101
1010
0000
0121
1000
0100
0000
1031
0100
1001
0000
0112
1000
0100
0000
,
1013
0000
0000
0000
0000
0000
0100
0000
0000
0000
0000
0000
1010
0000
0000
0000
0000
0000
0000
0000
0000
0000
0000
0000
2101
0000
0000
0000
0000
0000
0010
0000
0000
0000
0000
0000
0001
0000
0000
0000
0000
0000
0000
0000
0000
0000
0000
0000
3110
0000
0000
0000
0000
0000
0001
0000
0000
0000
0000
0000
0110
0000
0000
0000
0000
0000
0000
0000
0000
0000
0000
0000
1201
0000
0000
0000
0000
0000
0010
0000
0000
0000
0000
0000
0001
0000
0000
0000
0000
0000
0010
0000
0000
0000
0000
0000
1302
0000
0000
0000
0000
0000
0000
0000
0000
0000
0000
0000
0010
0000
0000
0000
0000
0000
0000
0000
0000
0000
0000
0000
0100
0000
0000
0000
0000
0000
0000
0000
0000
0000
0000
0000
1000
0000
0000
0000
0000
0000
0000
0000
0000
0000
0000
0000
0010
0000
0000
0000
0000
0000
0000
0000
0000
0000
0000
0000
0100
0000
0000
0000
1000
0000
0000
0000
0000
0000
0000
0000
0113
0000
0000
0000
0000
0000
0000
0000
0000
0000
0000
0000
0100
0000
0000
0000
0000
0000
0000
0000
0000
0000
0000
0000
,
1001
0100
0010
0001
1000
0100
0010
0001
1010
0100
1010
0001
1000
0100
0010
0001
1001
0100
0010
0001
1000
0100
0010
0001
1010
0100
1010
0001
1000
0100
0010
0001
,
1001
0000
0000
0000
0000
0000
0100
0000
0000
0000
0000
0000
0010
0000
0000
0000
0000
0000
0001
0000
0000
0000
0000
0000
1000
0000
0000
0000
0000
0000
0100
0000
0000
0000
0000
0000
0010
0000
0000
0000
0000
0000
0001
0000
0000
0000
0000
0000
1010
0000
0000
0000
0000
0000
0100
0000
0000
0000
0000
0000
1010
0000
0000
0000
0000
0000
0001
0000
0000
0000
0000
0000
1000
0000
0000
0000
0000
0000
0100
0000
0000
0000
0000
0000
0010
0000
0000
0000
0000
0000
0001
0000
0000
0000
0000
0000
1001
0000
0000
0000
0000
0000
0100
0000
0000
0000
0000
0000
0010
0000
0000
0000
0000
0000
0001
0000
0000
0000
0000
0000
1122
0000
0000
0000
0000
0000
0000
0000
0000
0000
0000
0000
1000
0000
0000
0000
0000
0000
0000
0000
0000
0000
0000
0000
2133
0000
0000
0000
0000
0000
0000
0000
0000
0000
0000
0000
0110
0000
0000
0000
0000
0000
0000
0000
0000
0000
0000
0000
3011
0000
0000
0000
0000
0000
0000
0000
0100
0000
0000
0000
0010
0000
0000
0000
0000
0000
0000
0000
0000
0000
0000
0000
,
1001
0010
0100
1000
0001
0010
0100
1000
0101
0010
0101
1000
0001
0010
0100
1000
1001
0010
0100
1000
0001
0010
0100
1000
0101
0010
0101
1000
0001
0010
0100
1000
,
1001
0000
0010
0000
0100
0000
1000
0000
1112
0000
0000
0000
1000
0000
0000
0100
0010
1000
0000
0000
0010
0000
0000
0000
1100
0000
0000
0000
0010
0000
0000
0000
1000
0000
0000
0010
0100
0000
0000
1000
0100
0000
0000
0000
0010
0000
0000
0000
1000
0100
0000
0000
0010
0000
0000
0000
0103
0000
0000
0010
1000
0000
0000
0000
,
1111
0000
0000
0001
0000
0000
1100
0000
0001
0010
0000
0000
1001
0000
0100
0001
0000
0000
1010
0000
0000
1100
0000
0000
1001
0000
0010
0001
0000
0000
1100
0000
0001
0010
0000
0000
1100
0000
0010
0001
0000
0000
1001
0000
0100
1010
0000
0000
,
0110
0000
0000
1000
0001
0000
1010
0000
0000
0100
0000
0000
0011
0000
0000
1000
0000
0000
0110
0000
0000
0001
1000
0000
0011
0000
0000
0100
0000
0000
1010
0000
0000
0001
0000
0000
0110
0000
0000
0001
0000
0000
1010
0000
0001
0100
0000
0000
,
0011
0000
0000
0100
0010
0000
1001
0000
0100
1000
0000
0000
0011
0000
0000
0100
0000
0000
1001
0000
0100
0010
0000
0000
0011
0000
1000
0100
0000
0000
0011
0000
0000
1000
0000
0000
0101
0000
0000
0010
0100
0000
1001
0000
0000
0010
0000
0000
,
1100
0000
0000
0001
0000
0000
0101
0000
1000
0010
0000
0000
1100
0000
0010
0001
0000
0000
0101
0000
1000
0010
0000
0000
0101
0000
0000
1000
0000
0000
0110
0000
1000
0001
0000
0000
1100
0000
0001
0010
0000
0000
0101
0000
0000
1000
0000
0000
,
1010
0000
0100
0001
0000
0000
0110
0000
0000
1000
0000
0000
0011
0000
0100
0001
1000
0000
0110
0000
0000
1000
0001
0000
1010
0000
0000
0100
0000
0000
1001
0000
0010
0100
0000
0000
1010
0000
0000
0001
0000
0000
1100
0000
0000
0010
0100
0000
,
1001
0000
0010
1000
0000
0000
0101
0000
0000
0010
0000
0000
1001
0000
0100
0010
0000
0000
0011
0000
0000
1000
0000
0000
0101
0000
0000
0010
0000
0000
1100
0000
0010
0001
0000
0000
0101
0000
1000
0010
0000
0000
0101
0000
0000
1000
0000
0000
,
0111
1000
0111
0000
1000
0100
1011
0000
0111
1000
0100
0000
1011
0100
1000
0000
0111
1000
0111
0000
1000
0100
1011
0000
0111
1000
0100
0000
1022
0100
1000
0000
,
0133
1000
0100
0000
1011
0100
1011
0000
0111
1000
0100
0000
1011
0100
1000
0000
0111
1000
0111
0000
1000
0100
1011
0000
0111
1000
0100
0000
1022
0100
1033
0000
,
1111
0000
0000
0001
0010
0000
1001
0000
0100
0010
0000
0000
1100
0000
0000
0001
0000
0000
1010
0000
0100
0001
0000
0000
0110
0000
0000
1000
0010
0000
0101
0000
0000
0001
1000
0000
0110
0000
0000
1000
0000
0000
0101
0000
1000
0010
0000
0000
,
1111
0000
0000
0100
0000
0000
0011
0000
1000
0010
0000
0000
0101
0000
0000
1000
0000
0000
0011
0000
0000
0100
1000
0000
0011
0000
0000
0010
0100
0000
1001
0000
0000
0100
0000
0000
0011
0000
0000
1000
0100
0000
1001
0000
0010
0100
0000
0000
,
1111
0000
0000
0001
0000
0000
0011
0000
1000
0100
0000
0000
0011
0000
0100
1000
0000
0000
0110
0000
0000
0001
0000
0000
1010
0000
0001
0100
0000
0000
0011
0000
1000
0001
0000
0000
0110
0000
0001
1000
0000
0000
0011
0000
0100
0001
0000
0000
,
1111
0000
0000
0010
1000
0000
0101
0000
0000
1000
0001
0000
0110
0000
1000
0001
0010
0000
1100
0000
0000
0010
0000
0000
0101
0000
1000
0001
0000
0000
0110
0000
0000
1000
0000
0000
0101
0000
0010
0001
1000
0000
0110
0000
0000
1000
0000
0000
,
1111
0000
0010
0100
0000
0000
1010
0000
0000
0001
0000
0000
1100
0000
0000
0010
0000
0000
1001
0000
0110
0001
0000
0000
1010
0000
0000
0100
0001
0000
1010
0000
0000
0001
0000
0000
1100
0000
0001
0010
0000
0000
1100
0000
0010
0001
0000
0000
,
1111
0000
0000
1000
0100
0000
0011
0000
0000
0100
0001
0000
1010
0000
0100
0001
0000
0000
0110
0000
0000
1000
0000
0000
0011
0000
0100
0001
1000
0000
0110
0000
0000
0001
0000
0000
1010
0000
0000
0100
0000
0000
0011
0000
1100
0010
0000
0000
,
1111
1110
0001
1110
1111
0010
1101
0010
1101
1110
0001
1110
1111
0010
2201
0010
,
3301
0010
1101
1110
1111
0010
2201
3310
1101
1110
0001
1110
1111
0010
1111
1111
,
2222
0000
0000
0000
,
0000
0000
0000
0000
,
3333
0000
0000
0000
;

//---------------dance-single - ----------------
#NOTES:
     dance-single:
     :
     Medium:
     11:
     0.774,0.966,0.678,0.416,0.660,842.000,132.000,81.000,0.000,6.000:
1001
0000
0001
0000
0010
0000
0100
0000
1000
0000
0010
0000
,
0100
0000
0001
0000
1000
0000
0100
0000
0010
0000
0001
0000
,
0010
0000
0100
0000
0010
0000
1000
0000
0100
0000
0010
0000
,
0001
0000
1000
0000
0100
0000
0010
0000
0100
0000
0001
0000
,
2002
0200
0300
0020
,
0030
0000
0200
0000
0300
3003
0010
1001
,
2002
0200
0300
0020
,
0030
0200
3303
0110
,
1000
0100
1000
0000
0001
0000
0100
0010
0100
0000
0010
0000
1000
0100
1000
0000
,
0001
0000
0100
0010
0100
0000
0010
0000
1001
0000
1000
0000
1100
0000
0010
0000
,
0001
1000
0001
0000
0100
0000
0010
1000
0010
0000
1000
0000
0100
0010
0001
0000
,
1000
0000
0010
0100
0010
0000
1000
0000
1001
0000
0010
0000
0101
0000
0100
0000
,
0010
1000
0010
0000
1000
0000
0001
0010
0001
0000
0100
0000
0010
1000
0010
0000
,
0100
0000
0001
1000
0001
0000
0010
0000
1100
0000
1000
0000
0101
0000
0001
0000
,
0010
0100
0010
0000
0001
0000
1000
0100
1000
0000
0010
0000
0100
0001
0100
0000
,
0010
0000
1000
0100
1000
0000
0001
0000
0011
0000
0100
0000
1001
0000
1000
0000
,
1020
0000
0000
0000
,
0100
0000
0000
0000
,
0001
0000
0000
0000
,
0100
0000
0000
1030
,
1001
0001
0010
0100
1000
0100
0010
0001
,
0100
0010
1000
0010
0100
0001
0010
0100
,
1100
0001
1000
0010
0100
1000
0100
0001
,
0010
0100
1000
0010
0100
0001
1000
0100
,
0010
0001
0010
0000
0001
1000
0001
0000
0100
0010
1000
0000
1000
0100
1000
0000
,
0001
0010
0100
0000
1000
0010
1000
0000
0001
0100
0001
0000
0010
0100
1000
0000
,
1000
0010
1000
0000
0100
0010
0001
0000
0001
1000
0001
0000
0100
0010
0100
0000
,
0010
1000
0010
0000
1000
0100
0010
0000
0001
0010
0100
0000
1000
0001
1000
0000
,
1002
0000
0100
0000
0010
0000
1003
0000
0001
0100
0001
0100
0010
0100
0010
0000
,
2000
0000
0001
0000
0100
0000
3001
0000
0010
0100
0010
0100
1000
0100
1000
0000
,
0002
0000
0010
0000
0100
0000
0013
0000
1000
0001
1000
0001
1000
0100
1000
0000
,
0200
0000
0010
0000
0001
0000
0310
0000
1000
0001
1000
0001
0100
0010
0100
0000
,
0020
0000
1000
0000
0100
0000
1030
0000
0001
0100
0001
1000
0010
1000
0010
0000
,
2000
0000
0100
0000
0001
0000
3100
0000
0010
0001
0010
0001
1000
0010
1000
0000
,
1001
0000
0000
0011
0000
0000
0110
0000
1100
0000
0000
1010
0000
0000
0110
0000
,
0000
0000
0001
1000
0001
0000
0101
0000
0110
0000
0000
1010
0000
0000
1100
0000
,
0001
0010
0001
0010
0100
1000
0100
0000
2000
0000
0001
0000
0010
0000
3001
0000
,
0100
0010
0100
0010
1000
0100
1000
0000
0002
0000
0010
0000
1000
0000
0013
0000
,
0100
0001
0100
0001
1000
0100
0010
0000
0002
0000
1000
0000
0100
0000
1003
0000
,
0010
0100
0001
0100
0001
1000
0100
0000
0020
0000
0001
0000
1000
0000
0031
0000
,
0100
0010
0100
0010
1000
0100
1000
0000
0002
0000
0010
0000
1000
0000
0013
0000
,
0100
1000
0100
1000
0001
0010
0001
0000
0200
0000
0010
0000
1000
0000
0310
0000
,
1001
0000
0000
0011
0000
0000
1010
0000
1100
0000
0000
0101
0000
0000
1001
0000
,
0000
0000
0010
0100
0010
0000
1001
0000
1100
0000
0000
0110
0000
0000
0011
0000
,
0220
0000
0000
0000
0330
0000
1001
0000
0101
0000
0000
0110
0000
0000
1010
0000
,
2002
0000
3003
0110
0022
0000
0033
0000
,
2200
0000
0000
0000
3300
0000
1001
0000
0101
0000
0000
0110
0000
0000
1010
0000
,
1100
0001
0110
0000
0011
1000
0110
0000
,
2200
0000
0000
0000
3300
0000
1001
0000
0011
0000
0000
0110
0000
0000
1100
0000
,
2002
0000
3003
0011
0220
0000
0330
0000
,
2002
0000
0000
0000
3003
0000
1100
0000
1010
0000
0000
0110
0000
0000
0101
0000
,
1001
0000
0000
2200
0000
0000
0000
0000
3300
0000
0000
0000
0110
0000
0000
0000
,
1000
0010
0000
1000
0001
0000
0100
0000
1000
0100
0000
0001
0010
0000
0100
0000
,
1000
0010
0000
0001
0010
0000
0100
0000
1000
0001
0000
0100
0010
0000
1000
0000
,
0001
0010
0000
0100
1000
0000
0010
0000
0100
0001
0000
1000
0100
0000
0010
0000
,
0001
0100
0000
1000
0100
0000
0010
0000
1000
0001
0000
0010
0100
0000
1000
0000
,
0010
0001
0000
0010
1000
0000
0001
0000
0100
0010
0000
0100
1000
0000
0100
0000
,
0001
0010
0000
0100
0010
0000
1000
0000
0100
0010
0000
0001
0010
0000
1000
0000
,
1010
0000
0000
0110
0000
0000
0101
0000
1001
0000
0000
1100
0000
0000
0110
0000
,
0000
0000
0001
1000
0001
0000
0011
0000
0110
0000
0000
1100
0000
0000
1010
0000
,
0110
0000
1001
0000
1001
0011
0110
1100
,
1000
0001
1000
0001
2002
0000
3003
0000
0010
0100
0001
0100
0202
0000
0303
0000
,
1000
0100
1000
0100
0220
0000
0330
0000
0001
1000
0001
1000
2200
0000
3300
0000
,
0010
0001
0010
0001
0202
0000
0303
0000
0010
1000
0010
1000
2200
0000
3300
0000
,
0001
1000
0001
1000
2020
0000
3030
0000
0100
0001
0100
0001
0022
0000
0033
0000
,
0110
1000
0010
1000
2200
0000
3300
0000
0011
0100
0001
0100
0220
0000
0330
0000
,
1001
0100
1000
0100
0220
0000
0330
0000
1010
0001
0010
0001
0202
0000
0303
0000
,
0011
1000
0010
1000
2200
0000
3300
0000
1001
0100
0010
0100
2002
0000
3003
0000
,
0011
0100
1000
0100
0022
0000
0033
0000
1010
0001
0100
0001
2020
0000
3030
0000
,
0001
0100
0001
0000
0000
0000
1000
0000
0100
0000
0000
0000
0010
0000
0001
0000
,
0000
1000
0010
0000
0100
0001
0100
0001
,
1000
0010
1000
0000
0000
0000
0001
0000
0010
0000
0000
0000
0100
0000
1000
0000
,
0000
0001
0010
0000
0100
1000
0100
1000
,
0220
0000
0000
0000
0000
0000
0330
0000
1000
0010
1000
0010
1000
0010
1000
0010
,
0100
0001
0100
0001
0010
0100
0010
0100
2000
0000
0000
0000
0001
0000
3000
0000
,
0010
0100
0010
0100
0001
1000
0001
1000
0100
0001
0100
0001
0100
1000
0100
1000
,
0010
0100
0010
0100
0001
1000
0001
1000
0200
0000
0000
0000
0010
0000
0300
0000
,
0001
0010
0001
0010
0100
1000
0100
1000
0010
0100
0010
0100
1000
0100
1000
0100
,
0001
0010
0001
0010
0100
1000
0100
1000
0020
0000
0000
0000
0100
0000
0030
0000
,
1000
0001
1000
0001
0100
0010
0100
0010
1000
0100
1000
0100
0010
0001
0010
0001
,
0200
1000
0001
1300
,
0010
0100
0001
0000
0100
0010
1000
0000
0001
0100
0001
0100
0010
0000
1000
0000
,
0100
0010
0001
0000
0010
0100
1000
0000
0001
0010
0001
0010
0100
0000
1000
0000
,
0010
0100
0001
0000
1000
0100
0001
0000
0100
1000
0100
1000
0010
0000
0100
0000
,
0001
1000
0100
0000
0010
0001
1000
0000
0010
0100
0010
0100
0001
0000
0010
0000
,
0100
1000
0001
0000
0100
0010
1000
0000
0001
0010
0001
0010
0100
0000
1000
0000
,
0010
0100
0001
0000
1000
0100
0010
0000
0001
1000
0001
1000
0100
0000
0010
0000
,
0110
0000
0000
0101
0000
0000
1001
0000
1100
0000
0000
0110
0000
0000
0011
0000
,
0000
0000
1000
0001
1000
0000
0110
0000
0011
0000
0000
0101
0000
0000
1001
0000
,
1000
0100
1000
0000
1000
0010
1000
0000
0001
0100
0001
0000
0001
0010
0001
0000
,
0100
1000
0100
0000
0100
0001
0100
0000
0010
1000
0010
0000
0010
0001
0010
0000
,
1000
0100
1000
0000
1000
0001
1000
0000
0001
0010
0001
0000
0001
0100
0001
0000
,
1000
0100
1000
0000
0001
0010
0001
0000
0100
0010
0100
0000
0010
1000
0010
0000
,
1000
0100
1000
0100
0010
0000
0001
0100
0001
1000
0100
0000
0010
0001
1000
0000
,
0001
0010
0001
0010
0100
0000
1000
0010
1000
0010
0100
0000
0001
0010
0100
0000
,
1100
0000
0000
1010
0000
0000
0110
0000
0101
0000
0000
1001
0000
0000
1010
0000
,
0000
0000
0001
0100
0001
0000
0011
0000
0110
0000
0000
1100
0000
0000
0101
0000
,
2002
0000
0000
0000
,
0000
0000
0000
0000
,
3003
0000
0000
0000
;

//---------------dance-single - ----------------
#NOTES:
     dance-single:
     :
     Easy:
     9:
     0.591,0.864,0.745,0.262,0.177,609.000,145.000,51.000,0.000,0.000:
0002
0000
0203
0000
,
0320
0000
2030
0000
,
3200
0000
0320
0000
,
0032
0000
0000
0000
0203
0000
0000
0300
,
2002
0000
0000
0000
,
0000
0000
0000
0000
0000
3003
0000
1001
,
0220
0000
0000
0000
,
0000
0000
0330
0110
,
1001
0010
0100
1000
0010
0001
0010
1000
,
0100
0010
0001
0100
1010
1010
1100
1100
,
0001
0010
0100
1000
0010
0001
0010
1000
,
0100
0010
0001
1000
0110
0110
0101
0101
,
0010
1000
0100
0001
0100
1000
0010
0100
,
0001
0010
0100
1000
0011
0011
0101
0101
,
1000
0100
0001
0100
0010
0001
0100
1000
,
0100
0010
1000
0001
0110
0110
1001
1001
,
1020
0000
0000
0000
,
0100
0000
0000
0000
,
0001
0000
0000
0000
,
0100
0000
0000
1030
,
1000
0100
0001
0100
1000
0010
1000
0100
,
0001
0100
1000
0010
0100
0001
0010
1000
,
0010
0001
0100
0001
0010
1000
0010
0001
,
0100
0001
0010
0100
1000
0010
0110
0000
,
0100
0001
0100
0010
0001
1000
0100
1000
,
0010
0100
0001
0010
1000
0010
0001
0100
,
1000
0100
0010
1000
0010
1000
0010
0100
,
0001
0010
0100
1000
0010
0100
0101
0000
,
1000
0010
1000
0000
0001
0000
0010
0000
0100
0000
1000
0000
1001
0000
0000
0000
,
0100
0010
0100
0000
0001
0000
1000
0000
0100
0000
0010
0000
0011
0000
0000
0000
,
1000
0010
1000
0000
0001
0000
0100
0000
0010
0000
1000
0000
1100
0000
0000
0000
,
0010
0001
0010
0000
0100
0000
1000
0000
0001
0000
0010
0000
0011
0000
0000
0000
,
0100
1000
0100
0000
1000
0000
0010
0000
0100
0000
0001
0000
1001
0000
0000
0000
,
0010
0100
0010
0000
1000
0000
0100
0000
0010
0000
0001
0000
0101
0000
0000
0000
,
1001
0000
0000
1001
0000
0000
1100
0000
0110
0000
0000
0011
0000
0000
0011
0000
,
0000
0000
0001
1000
0001
0000
1001
0000
0110
0000
0000
1010
0000
0000
1100
0000
,
0100
0010
0001
0000
1000
0000
0010
0000
0100
0000
0001
0000
1001
0000
0000
0000
,
1000
0100
1000
0000
0010
0000
0100
0000
0001
0000
0010
0000
0110
0000
0000
0000
,
1000
0001
1000
0000
0010
0000
0100
0000
0001
0000
0010
0000
0110
0000
0000
0000
,
1000
0001
1000
0000
0100
0000
0010
0000
0001
0000
1000
0000
1010
0000
0000
0000
,
0001
1000
0001
0000
0100
0000
0010
0000
1000
0000
0100
0000
1100
0000
0000
0000
,
0001
0010
0001
0000
1000
0000
0010
0000
0001
0000
0010
0000
0110
0000
0000
0000
,
1001
0000
0000
0011
0000
0000
1010
0000
1100
0000
0000
0101
0000
0000
1001
0000
,
0000
0000
0010
0100
0010
0000
0110
0000
1100
0000
0000
0110
0000
0000
0011
0000
,
0001
0000
0010
0000
1000
0100
1001
0000
,
0010
0000
0100
0000
0001
0010
0101
0000
,
1000
0000
0010
0000
0100
0001
0110
0000
,
1001
0011
0110
1100
,
1000
0000
0010
0000
0100
0001
0110
0000
,
1000
0000
0001
0000
0010
0100
0011
0000
,
1000
0000
0010
0000
0100
0001
1100
0000
,
1001
0000
0000
2200
0000
0000
0000
0000
3300
0000
0000
0000
0110
0000
0000
0000
,
1000
0000
0000
1000
0000
0000
0001
0000
0100
0000
0000
0010
0000
0000
1000
0000
,
1000
0000
0000
0001
0000
0000
0001
0000
0010
0000
0000
0100
0000
0000
0100
0000
,
1000
0000
0000
0010
0000
0000
0001
0000
0001
0000
0000
0100
0000
0000
0100
0000
,
0010
0000
0000
1000
0000
0000
1000
0000
0001
0000
0000
0010
0000
0000
0010
0000
,
0100
0000
0000
0100
0000
0000
1000
0000
0010
0000
0000
0010
0000
0000
0100
0000
,
0001
0000
0000
0001
0000
0000
1000
0000
0100
0000
0000
0010
0000
0000
0001
0000
,
0011
0000
0000
0110
0000
0000
1100
0000
1001
0000
0000
1100
0000
0000
0110
0000
,
0000
0000
0001
1000
0001
0000
0011
0000
0110
0000
0000
1100
0000
0000
1010
0000
,
0110
0000
1001
0000
1001
0011
0110
1100
,
1000
0001
1000
0001
0200
0000
0300
0000
0010
1000
0010
1000
0002
0000
0003
0000
,
0100
0010
0100
0010
2000
0000
3000
0000
0100
0010
0100
0010
0002
0000
0003
0000
,
0010
0001
0010
0001
2000
0000
3000
0000
0010
0100
0010
0100
0002
0000
0003
0000
,
1000
0100
1000
0100
0002
0000
0003
0000
0100
1000
0100
1000
0020
0000
0030
0000
,
1100
0110
0022
0033
0101
0110
2020
3030
,
1100
1001
0220
0330
0011
0110
2002
3003
,
1010
1100
0202
0303
0011
0110
2002
3003
,
1100
0011
2020
3030
0011
1100
2020
3030
,
0001
0100
0001
0000
0000
0000
1000
0000
1100
0000
0000
0000
0010
0000
0011
0000
,
0000
1000
1010
0000
0100
0001
0100
0001
,
1000
0010
1000
0000
0000
0000
0001
0000
0011
0000
0000
0000
0100
0000
1100
0000
,
0000
0001
0011
0000
0100
1000
0100
1000
,
0220
0000
0000
0330
1001
0100
0010
0001
,
0100
1000
0100
0001
2002
0000
0000
3003
,
1100
0001
0100
0010
0001
0100
1000
0100
,
0010
0001
0100
0010
0220
0000
0000
0330
,
1001
0001
0100
1000
0100
0001
0010
0100
,
1000
0010
0100
0001
0220
0000
0000
0330
,
1001
0010
0100
1000
1000
0100
0010
0001
,
0202
0000
0000
0303
,
1000
0000
0000
1000
0000
0000
0010
0000
0100
0000
0001
0000
0010
0000
0001
0000
,
1000
0000
0000
1000
0000
0000
0010
0000
0100
0000
1000
0000
0100
0000
0001
0000
,
0010
0000
0000
0010
0000
0000
0100
0000
1000
0000
0001
0000
1000
0000
0100
0000
,
0010
0000
0000
0010
0000
0000
0001
0000
0100
0000
0010
0000
1000
0000
0100
0000
,
0010
0000
0000
0010
0000
0000
0001
0000
0100
0000
0010
0000
1000
0000
0100
0000
,
0100
0000
0000
0100
0000
0000
1000
0000
0010
0000
0100
0000
0001
0000
0010
0000
,
0110
0000
0000
1100
0000
0000
1001
0000
0101
0000
0000
0110
0000
0000
1010
0000
,
0000
0000
1000
0001
1000
0000
1100
0000
0110
0000
0000
0011
0000
0000
1001
0000
,
1000
0010
0100
0001
0010
0100
1000
0100
,
0010
0001
0100
1000
0100
0001
0010
0100
,
1000
0010
0100
0001
1000
0100
0010
0001
,
0001
0100
1000
0100
0001
0100
1000
0100
,
0001
0010
1000
0010
0001
0010
1000
0010
,
0001
0100
0010
1000
0100
0010
0001
0010
,
0110
0000
0000
1100
0000
0000
1010
0000
0110
0000
0000
0101
0000
0000
0011
0000
,
0000
0000
0001
0100
0001
0000
0011
0000
0110
0000
0000
1100
0000
0000
1010
0000
,
2002
0000
0000
0000
,
0000
0000
0000
0000
,
3003
0000
0000
0000
;
